Details for this torrent 

Here Comes the Devil (1920x1080) [Phr0stY].mkv
Type:
Video > HD - Movies
Files:
1
Size:
3.06 GiB (3289755568 Bytes)

Info:
IMDB
Spoken language(s):
Spanish
Texted language(s):
English
Tag(s):
here comes the devil

Uploaded:
2013-12-22 18:01:12 GMT
By:
frostyon420 Trusted

Seeders:
5
Leechers:
2
Comments
12  

Info Hash:
 
509E39015521FF4F78EFBF29CA5BA5469D91230E
picture




(Problems with magnets links are fixed by upgrading your torrent client!)
FIXED RELEASE!!!!!

Please Seed :) SUPPORT THE SMALL GUYS TORRENTS, ALWAYS HD never RE-ENCODED! over 400 torrents and counting;)

Join me on the NEW Superbay for updates on my torrents or to let me know if I need to fix something :)

ALSO!!!!! if u have a show request I might consider uploading it, if I can access the content online.
  
https://forum.suprbay.org/showthread.php?tid=369

OR

sign up and Rate me as an uploader ;)
  
http://bayimg.com/dacNAaaFJ

ADD my RSS feed to your torrent client for my latest torrents  
http://rss.thepiratebay.sx/user/178e8d96586bbd0dcb5c2729df9a5c4d

NOW Seedbox supported!!! :)

IF YOU HAVE ANY HOT NEW ITUNES CONTENT AND YOU WANT TO CONTRIBUTE TO TPB PLEASE PM ME ON SUPERBAY... REMOVE YOUR DRM!

[Itunes-Rip]

Complete name                            : H:MoviesHere Comes the Devil (2013)Here Comes the Devil (1920x1080)(5.1) [Phr0stY].mkv
Format                                   : Matroska
Format version                           : Version 2
File size                                : 3.06 GiB
Duration                                 : 1h 37mn
Overall bit rate                         : 4 494 Kbps
Writing application                      : Lavf54.59.106
Writing library                          : Lavf54.59.106

Video
ID                                       : 1
Format                                   : V_MJPEG
Codec ID                                 : V_MJPEG
Duration                                 : 1h 37mn
Bit rate                                 : 4 021 Kbps
Width                                    : 640 pixels
Height                                   : 264 pixels
Display aspect ratio                     : 2.40:1
Frame rate mode                          : Constant
Frame rate                               : 23.976 fps
Bits/(Pixel*Frame)                       : 0.993
Stream size                              : 2.74 GiB (89%)
Default                                  : Yes
Forced                                   : No

Audio
ID                                       : 2
Format                                   : AC-3
Format/Info                              : Audio Coding 3
Mode extension                           : CM (complete main)
Format settings, Endianness              : Big
Codec ID                                 : A_AC3
Duration                                 : 1h 37mn
Bit rate mode                            : Constant
Bit rate                                 : 384 Kbps
Channel count                            : 2 channels
Original Channel count                   : 6 channels
Channel positions                        : Front: L C R, Side: L R, LFE
Sampling rate                            : 48.0 KHz
Bit depth                                : 16 bits
Compression mode                         : Lossy
Stream size                              : 268 MiB (9%)
Default                                  : Yes
Forced                                   : No		

Comments

It doesn't work. Tried VLC and all I got was audio where all my other movies worked fine.
Anyone else have that issue
Works with my vlc player with klite codecs...
This one works with vlc, frosty.

lonegranger, did you redownload this or are you viewing the old one? I got no video on that one.
thanks for the feedback loneranger
Wow, been waiting for this to hit tpb for ages! Thanks frostyon420, you've become one of the most consistent uploaders of quality content, your work does not go unappreciated nor unnoticed.
Thanks so much frostyon420! I was really looking forward to watch that one and yeah it works just fine for me as well (I watch it with vlc),
Great quality video/audio.
So again thanks a lot for the UP; ok going back to watching my ice cream is melting ;p ha!
@froston420 - Your welcome
@sendmorecops - I think i downloaded the first one, so I am downloading this one right now and I'll let you know if it works. I'm sure it will.

I'll try and reply quicker next time.
unable to watch mvk , is it possible to get it in avi or mp4?
I'm having a problem with this movie, the subtitle is already embedded in the film?

I'm tried to take the legend and put another but I can not, no advanced program, suitable for editing captions and extraction, recognizes as having nothing of subs

what do I do??
Flawless. I was a bit concerned because of the comments but, to clarify:

The info in the description, more specifically the screen resolution, is incorrect. The true screen resolution is 1916*792. Here are the mediainfo specs:
General
Unique ID : 201032516447547646120436778447713663656 (0x973D744E756F12AD9C7C80467724FAA8)
Complete name : G:QCMoviesHere Comes the Devil (1920x1080) [Phr0stY].mkv
Format : Matroska
File size : 3.06 GiB
Duration : 1h 37mn
Overall bit rate : 4 493 Kbps
Encoded date : UTC 2013-12-22 16:51:26
Writing application : mkvmerge v6.6.0 ('The Edge Of The In Between') built on Dec 1 2013 17:55:00
Writing library : libebml v1.3.0 + libmatroska v1.4.1

Video
ID : 1
Format : AVC
Format/Info : Advanced Video Codec
Format profile : High@L4.0
Format settings, CABAC : Yes
Format settings, ReFrames : 5 frames
Codec ID : V_MPEG4/ISO/AVC
Duration : 1h 37mn
Bit rate : 4 020 Kbps
Width : 1 916 pixels
Height : 792 pixels
Display aspect ratio : 2.40:1
Frame rate : 23.976 fps
Color space : YUV
Chroma subsampling : 4:2:0
Bit depth : 8 bits
Scan type : Progressive
Bits/(Pixel*Frame) : 0.110
Stream size : 2.74 GiB (89%)
Language : English
Color primaries : BT.709-5, BT.1361, IEC 61966-2-4, SMPTE RP177
Transfer characteristics : BT.709-5, BT.1361
Matrix coefficients : BT.709-5, BT.1361, IEC 61966-2-4 709, SMPTE RP177

Audio
ID : 2
Format : AC-3
Format/Info : Audio Coding 3
Mode extension : CM (complete main)
Codec ID : A_AC3
Duration : 1h 37mn
Bit rate mode : Constant
Bit rate : 384 Kbps
Channel(s) : 6 channels
Channel positions : Front: L C R, Side: L R, LFE
Sampling rate : 48.0 KHz
Bit depth : 16 bits
Compression mode : Lossy
Stream size : 268 MiB (9%)
Language : Spanish

Menu
00:00:00.000 : en:1
00:06:00.000 : en:2
00:10:21.000 : en:3
00:15:42.000 : en:4
00:22:31.000 : en:5
00:28:44.000 : en:6
00:33:13.000 : en:7
00:39:34.000 : en:8
00:46:23.000 : en:9
00:51:51.000 : en:10
00:56:37.000 : en:11
01:03:18.000 : en:12
01:09:37.000 : en:13
01:16:16.000 : en:14
01:22:30.000 : en:15
01:28:50.000 : en:16

@ Gingasnapz - .mkv is just a container. It contains all the content of the file including audio, video, subtitles, and chapters. If your player cannot play .mkv files, either switch to VLC or rename the file to .mp4.

@ BlooDScythe - Not following what you are saying but, unless you know Spanish, the subtitles are required. The uploader (or whoever encoded this .torrent) embedded the subtitles into the video file instead of creating a separate .srt file (I actually prefer it this way).

@frostyon420 - Thank you very much for this upload.