Details for this torrent 

Hasee Toh Phasee (2014) - Punjabi Wedding Song Full Video Song H
Type:
Video > Music videos
Files:
1
Size:
44.97 MiB (47158942 Bytes)
Uploaded:
2014-01-09 18:02:38 GMT
By:
ashish.p
Seeders:
3
Leechers:
2
Comments
0  

Info Hash:
 
5701E763B45DF89F250DE6A2BE2060B5736B479C




(Problems with magnets links are fixed by upgrading your torrent client!)
General 
Complete name : Hasee Toh Phasee (2014) - Punjabi Wedding Song Full Video Song HD 720p -AshishRocks- { DAKU RG }
Format : MPEG-4 
Format profile : Base Media / Version 2 
Codec ID : mp42 
File size : 45.0 MiB 
Duration : 1mn 58s 
Overall bit rate mode : Variable 
Overall bit rate : 3 193 Kbps 
Encoded date : UTC 2014-01-01 11:19:08 
Tagged date : UTC 2014-01-01 11:19:08 
gsst : 0 
gstd : 118188 
gssd : BB64FFB04HH1389283759934712 
gshh : r1---sn-ci5gup-cvhl.googlevideo.com 

Video 
ID : 1 
Format : AVC 
Format/Info : Advanced Video Codec 
Format profile : High@L3.1 
Format settings, CABAC : Yes 
Format settings, ReFrames : 1 frame 
Codec ID : avc1 
Codec ID/Info : Advanced Video Coding 
Duration : 1mn 58s 
Bit rate : 2 999 Kbps 
Maximum bit rate : 5 683 Kbps 
Width : 1 280 pixels 
Height : 720 pixels 
Display aspect ratio : 16:9 
Frame rate mode : Constant 
Frame rate : 25.000 fps 
Color space : YUV 
Chroma subsampling : 4:2:0 
Bit depth : 8 bits 
Scan type : Progressive 
Bits/(Pixel*Frame) : 0.130 
Stream size : 42.2 MiB (94%) 
Tagged date : UTC 2014-01-01 11:19:09 

Audio 
ID : 2 
Format : AAC 
Format/Info : Advanced Audio Codec 
Format profile : LC 
Codec ID : 40 
Duration : 1mn 58s 
Bit rate mode : Variable 
Bit rate : 192 Kbps 
Maximum bit rate : 202 Kbps 
Channel(s) : 2 channels 
Channel positions : Front: L R 
Sampling rate : 44.1 KHz 
Compression mode : Lossy 
Stream size : 2.70 MiB (6%) 
Encoded date : UTC 2014-01-01 11:19:09 
Tagged date : UTC 2014-01-01 11:19:09